#TITLE:Chaos;
#SUBTITLE:;
#ARTIST:Ayreon;
#TITLETRANSLIT:;
#SUBTITLETRANSLIT:;
#ARTISTTRANSLIT:;
#CREDIT:;
#BANNER:bn.png;
#BACKGROUND:bg.png;
#LYRICSPATH:;
#CDTITLE:cdtitle.png;
#MUSIC:Chaos.mp3;
#OFFSET:-4.940;
#SAMPLESTART:100.000;
#SAMPLELENGTH:12.000;
#SELECTABLE:YES;
#BPMS:0.000=142.000,576.000=141.980;
#STOPS:;
#BGCHANGES:;
// cache tags:
#FIRSTBEAT:0.000;
#LASTBEAT:575.500;
#SONGFILENAME:Songs/Music V.I.P ^_^/Chaos/Chaos.sm;
#HASMUSIC:1;
#HASBANNER:1;
#MUSICLENGTH:261.067;
// end cache tags

//---------------dance-single - ----------------
#NOTES:
     dance-single:
     :
     Hard:
     13:
     1.000,1.000,1.000,1.000,1.000,1969.000,629.000,418.000,0.000,105.000:
1001
0000
1001
0000
1000
0100
0010
0001
0010
0100
1000
0100
1000
0100
0010
0001
,
1010
0010
0010
0010
0010
0001
0010
0100
0011
0100
1001
0100
0010
0000
0000
0000
,
1001
0010
0100
1000
0100
0010
0101
1000
0001
0010
0100
1000
0100
0010
1000
0100
,
1001
0100
0001
1010
0100
0010
1100
0010
1001
0100
0010
0001
0010
0000
0000
0000
,
1001
0100
1001
0100
0001
0100
1000
0100
0010
0001
0010
0100
1000
0100
1000
0100
,
1010
0010
0010
0010
0010
0001
1010
0100
1001
0010
1000
0100
0010
0000
0000
0000
,
1001
1000
1000
0001
1000
1000
0010
1000
0001
1000
1000
0010
1000
1000
0100
1000
,
1010
0001
0010
0100
0010
0001
0010
1000
0100
0010
0001
0010
0100
0000
0000
0000
,
1001
0000
0000
0101
0000
0000
1100
0000
0110
0000
1010
0000
0110
0000
0011
0000
,
0101
0000
0000
1010
0000
0100
1010
0000
0011
0000
1010
0000
1100
0000
0110
0000
,
1001
0000
0000
0101
0000
0000
1100
0000
0110
0000
1010
0000
0110
0000
0011
0000
,
2100
0000
0000
3102
0000
0000
1103
0000
0101
0000
1100
0000
0220
0000
0000
0000
,
1331
0000
0000
0101
0000
0000
1100
0000
0110
0000
1010
0000
0110
0000
0011
0000
,
0101
0000
0000
1010
0000
0100
1010
0000
0011
0000
1010
0000
1100
0000
0110
0000
,
1001
0000
0000
0101
0000
0000
1100
0000
0110
0000
1010
0000
0110
0000
0011
0000
,
0022
0000
0000
0000
0000
0000
0000
2000
,
0000
0000
0000
0000
0000
0000
0000
0000
0000
0000
0000
0000
0000
0000
0000
0000
0000
0000
0000
0000
0000
0000
0000
0000
0000
0000
0000
0000
0000
0000
0000
0000
0000
0000
0000
0000
0000
0000
0000
0000
0000
0000
0000
0000
0000
0000
0000
0000
0200
0000
0000
0000
0000
0000
0000
0000
0000
0000
0000
0000
0000
0000
0000
3333
,
1100
0010
1001
0100
0010
0100
0011
1000
0010
0100
1001
0010
0001
0100
1001
0100
,
0010
0010
1010
0010
0010
0001
1010
0100
0001
0010
1001
0100
0010
0000
1100
0000
,
0001
0010
0101
1000
0001
0010
0101
1000
0001
0010
0101
1000
0001
0010
1001
0100
,
1000
0100
1010
0001
0010
0001
1010
0100
1000
0001
1100
0010
1000
0000
0000
0000
,
0101
1000
0110
0001
1000
0001
1010
0100
1000
0001
0110
1000
0010
0001
0110
0001
,
1000
1000
1100
1000
1000
0010
1100
0001
0010
1000
0110
0001
1000
0000
0101
0000
,
0010
1000
0011
0100
0010
1000
0011
0100
0010
1000
0011
0100
0010
1000
0110
0001
,
0100
0001
0100
0010
1100
0010
1000
0001
0100
0010
0100
1000
0100
0000
0000
0000
,
1001
0000
0000
0101
0000
0000
1100
0000
0110
0000
1010
0000
0110
0000
0011
0000
,
0101
0000
0000
1010
0000
0100
1010
0000
0011
0000
1010
0000
1100
0000
0110
0000
,
1001
0000
0000
0101
0000
0000
1100
0000
0110
0000
1010
0000
0110
0000
0011
0000
,
2100
0000
0000
3102
0000
0000
1103
0000
0101
0000
1100
0000
0220
0000
0000
0000
,
1331
0000
0000
0101
0000
0000
1100
0000
0110
0000
1010
0000
0110
0000
0011
0000
,
0101
0000
0000
1010
0000
0100
1010
0000
0011
0000
1010
0000
1100
0000
0110
0000
,
1001
0000
0000
0101
0000
0000
1100
0000
0110
0000
1010
0000
0110
0000
0011
0000
,
0001
0100
0010
1000
0010
0100
1000
0100
0010
0001
0100
0001
0100
0010
1000
0010
1000
0100
0010
0001
0010
0100
1000
0010
,
0100
0001
1000
0011
0100
0001
1010
0100
1000
0100
1000
0010
1000
0001
0100
0001
0010
0001
0010
0100
1000
0100
0010
0100
,
0010
1000
0100
1001
0010
0100
1001
0100
0010
1100
0001
0100
0010
0001
0100
0010
1000
0100
0010
0001
0010
0100
1000
0001
,
1020
0000
0000
0000
1230
0000
0320
0000
1032
0000
0000
0000
1023
0000
1230
0320
,
1230
0300
0000
0000
0000
0000
0000
0000
0000
0000
0000
0000
0011
0000
0000
0000
0000
0000
0000
0000
0000
0000
0000
0000
0110
0000
0000
0000
0000
0000
0000
0000
1010
0000
0000
0000
0000
0000
0000
0000
1100
0000
0000
0000
0000
0000
0000
0000
0000
0000
0000
0000
0101
0000
0000
0000
0000
0000
0000
0000
0000
0000
0000
0000
,
0011
0000
0110
0000
1100
0000
0000
1010
0000
0000
0101
0000
1100
0000
0011
0000
,
1100
0000
0110
0000
1100
0000
0110
0000
0000
0011
0000
0000
0110
0000
1010
0000
,
1100
0000
0000
0101
0000
0000
0011
0000
0110
0000
1100
0000
0000
1010
0000
0000
,
0101
0000
1100
0000
0011
0000
0101
0000
1100
0000
0110
0000
0011
0000
0000
0011
,
0000
0000
0110
0000
1010
0000
1100
0000
0000
0101
0000
0000
0011
0000
0110
0000
,
1100
0000
0000
1010
0000
0000
0101
0000
1100
0000
0011
0000
1100
0000
0110
0000
,
1100
0000
0110
0000
0000
0011
0000
0000
0110
0000
1010
0000
1100
0000
0000
0101
,
0000
0000
0011
0000
0110
0000
1100
0000
0000
1010
0000
0000
0101
0000
1100
0000
,
0011
0000
2200
3300
0220
0330
2200
3300
0220
0330
0000
2200
0000
3300
0022
0033
,
2200
3300
0220
0330
0000
2020
0000
0000
3232
0303
0022
0033
0202
0303
0000
2002
,
0000
0000
3223
0330
0202
0303
2002
3003
2020
3030
2200
3300
0022
0033
0220
0330
,
0000
2200
0000
3300
0022
0033
2200
3300
0220
0330
0000
2020
0000
0000
3232
0303
,
0022
0033
0202
0303
0000
2002
0000
0000
3223
0330
0202
0303
2002
3003
2020
3030
,
2200
3300
0022
0033
2200
3300
0000
0011
0000
0000
0210
0000
1320
0000
1230
0000
,
0300
0101
2000
0000
3021
0030
0120
0030
2100
3000
0000
1010
0000
0000
0102
0000
,
2103
0000
0000
0000
0000
0000
0000
0000
3011
0000
0000
0000
0000
0000
0000
0000
1200
0000
0000
0000
0000
0000
0000
0300
0120
0000
0000
0000
0000
0000
0000
0000
1230
0000
0000
0000
0000
0000
0000
0300
0110
0000
0000
0000
0000
0000
0000
0000
0000
0000
0000
0000
0011
0000
0000
0000
0000
0000
0000
0000
0000
0000
0000
0000
,
0110
0000
1010
0000
1100
0000
0000
0101
0000
0000
0011
0000
0120
0000
1230
0000
,
0300
1010
0000
0000
0102
0000
2103
0000
3011
0000
1001
0000
0011
0000
1001
0000
,
0010
0100
1000
0001
0010
0001
0010
0100
1000
0100
1000
0010
1000
0010
0100
0001
0100
0001
0010
0100
1000
0001
0010
0100
,
1001
0000
0000
0100
1000
0100
1001
0000
0000
0011
0000
0000
0001
0010
0001
0010
0100
1000
0100
1000
0010
0100
0001
0010
,
0001
0100
0010
1000
0100
1000
0010
0100
0001
1000
0010
0100
0011
0000
0000
0001
1000
0001
1000
0100
0010
1001
0000
0000
,
0001
0010
0001
0010
0100
1000
0100
0010
0001
0010
0100
1000
0100
1000
0100
0010
0100
0010
0001
0010
0001
1000
0100
0010
,
0001
0010
0001
0100
1000
0010
1100
0001
0010
0001
1000
0100
1000
0100
0010
0101
0000
0000
0001
0100
0001
0100
0010
1000
,
0010
0000
0100
0000
0010
0000
1001
0000
0000
0000
0000
0000
1100
0000
0000
0000
0000
0000
0110
0000
0000
0000
0000
0000
0011
0000
0000
0000
0000
0000
0000
0000
0000
0101
0000
0000
0000
0000
0000
0000
0000
0000
0011
0000
0000
0000
0000
0000
,
0110
0000
1100
0000
0000
1010
0000
0000
1100
0000
0110
0000
0011
0000
0000
1001
,
0000
0101
0110
1010
1100
1010
0110
0011
,
0000
0101
0000
0000
0011
0000
0110
0000
1100
0000
0000
1010
0000
0000
1100
0000
,
0110
0000
0011
0000
0000
1001
0000
0000
0101
0000
0110
0000
1010
0000
1001
0110
,
1001
0000
1001
0000
0000
1000
0100
0000
0011
0000
0011
0000
0000
1000
0100
1000
,
0000
0000
0000
0000
1000
0000
0000
0000
0000
0000
0000
0000
0000
0000
0000
0000
0022
0033
0000
0000
0100
0000
0000
0000
1000
0000
0000
0000
0100
0000
0000
0000
1000
0000
0000
0000
0000
0000
0000
0000
0011
0000
0000
0000
0000
0000
0000
0000
0010
0000
0000
0000
0001
0000
0000
0000
0000
0000
0000
0000
1100
0000
0000
0000
,
0010
0000
0000
0000
0000
0000
0001
0000
0100
0000
0010
0000
1000
0000
0010
0000
0100
0000
0001
0000
0010
0000
0100
0000
0010
0000
0100
0000
1000
0000
0100
0000
0010
0000
0100
0000
1001
0000
0000
0000
0000
0000
1100
0000
0000
0011
0000
0000
,
0011
0000
1100
0000
1100
0011
0000
0011
1100
0000
0101
0010
0100
1000
0101
0010
,
0001
0000
0010
0000
0000
0000
0010
0000
0000
1000
0100
0010
0001
0000
0100
0000
1000
0000
0010
0000
0000
1000
0100
0010
0001
0000
0000
0000
0001
0000
0001
0010
,
1100
0000
0011
0000
1000
0100
1000
0100
1000
0000
0011
0000
1000
0000
0100
0000
0010
0000
0001
0000
0010
0000
0100
0000
2000
0000
3200
0000
2302
0000
3203
0000
,
0320
0230
2320
3032
2003
3020
2032
3203
0320
0230
2302
3023
0031
0100
1010
0100
,
0010
1000
0011
1000
0001
0010
1100
0010
0001
0010
1001
0100
0020
0230
2302
3023
,
0230
2300
3022
0233
0320
0230
2302
3203
0320
0230
0322
0233
1300
0100
1010
0001
,
0010
0100
1010
0001
0100
0001
1010
0001
0010
0100
1001
0100
2000
3020
2230
3320
,
0032
0203
2320
3032
0203
2300
3022
0233
2300
3020
2032
3203
0310
0100
1001
0100
,
0010
0001
1010
0100
0010
0100
1001
0100
1000
0100
1010
0001
0010
0001
1010
0100
,
1000
0000
0000
0000
0001
0000
0000
0000
0110
0000
0000
0000
0001
0000
0000
0000
1000
0000
0000
0000
0100
0000
0000
0000
0011
0000
0000
0000
0100
0000
0000
0000
0001
0000
0000
0000
0010
0000
0000
0000
1001
0000
0000
0000
0100
0000
0000
0000
0022
0033
0000
0000
0100
0000
0000
0000
0011
0000
0000
0000
2200
3300
0000
0000
,
0010
0000
0000
0000
1000
0000
0000
0000
0022
0033
0000
0000
1000
0000
0000
0000
0202
0303
0000
0000
0010
0000
0000
0000
1100
0000
0000
0000
0022
0033
0000
0000
1000
0000
0000
0000
0100
0000
0000
0000
0022
0033
0000
0000
0100
0000
0000
0000
0200
0000
0000
0000
0302
0000
0000
0000
0223
0000
0000
0000
0332
0000
0000
0000
,
2003
3002
2203
3320
0230
2300
3220
0332
2003
3002
0223
2330
3010
0001
1100
0001
,
1000
0100
1010
0100
0010
1000
0101
1000
0010
1000
0110
0001
2000
3002
0223
2330
,
3002
0203
2320
3032
2003
3002
0223
0332
2003
3002
2023
3032
0103
0001
1100
0010
,
1000
0001
1100
0010
0001
0010
1100
0010
1000
0001
0110
0001
0200
2300
3202
2303
,
3020
0032
2203
3320
0032
0203
2320
3032
0203
2300
3220
0332
1003
0100
1010
0001
,
0010
0100
1001
0010
0100
0001
1010
0100
0010
0001
0110
0001
0100
0010
1100
0010
,
0100
0000
0000
0000
0010
0000
0000
0000
1001
0000
0000
0000
0010
0000
0000
0000
0100
0000
0000
0000
1000
0000
0000
0000
0011
0000
0000
0000
1000
0000
0000
0000
0100
0000
0000
0000
0010
0000
0000
0000
1001
0000
0000
0000
0100
0000
0000
0000
2020
3030
0000
0000
0001
0000
0000
0000
1010
0000
0000
0000
0202
0303
0000
0000
,
1000
0000
0000
0000
0100
0000
0000
0000
2020
3030
0000
0000
0100
0000
0000
0000
0022
0033
0000
0000
1000
0000
0000
0000
0101
0000
0000
0000
2020
3030
0000
0000
0100
0000
0000
0000
0001
0000
0000
0000
2020
3030
0000
0000
0001
0000
0000
0000
0220
0330
0000
0000
1000
0000
0000
0000
0100
0000
0000
0000
2020
3030
0000
0000
,
0100
0000
0000
0000
1000
0000
0000
0000
0220
0330
0000
0000
1000
0000
0000
0000
0202
0003
0000
0000
0000
0000
0000
0000
0000
0000
0000
0000
0000
0000
0000
0000
0000
0000
0000
0000
0000
0000
0000
0000
0000
0000
0000
0000
0000
0000
0000
0000
0311
0000
0000
0000
1000
0000
0000
0000
0100
0000
0000
0000
1001
0000
0000
0000
,
0010
1000
0101
0010
0100
1010
0100
0001
1010
0100
1001
0010
1001
0100
0001
1010
,
0001
0100
0011
0100
1000
0101
0010
0001
1010
0100
1010
0100
1010
0001
0010
0101
,
0010
0100
1001
0010
0100
1001
0100
0001
1010
0100
1010
0001
1100
0010
0100
1001
,
0100
0001
1100
0010
1000
0011
0100
1000
0101
0010
0101
1000
0110
0001
0010
1001
,
0100
0010
0101
1000
0100
1001
0010
0100
1001
0010
1001
0100
1001
0100
0010
0100
,
0011
0100
0001
1000
0101
0010
0100
1000
0101
0010
0100
0001
1010
0100
1000
0010
,
0101
1000
0011
0100
0010
1000
0010
0100
1010
0001
0010
0100
0001
0010
0100
1000
,
0001
0010
0001
1000
0100
0010
0001
0100
0001
1000
0100
0010
1001
0010
1000
0011
,
1000
0100
1010
0001
0010
0101
1000
0010
1100
0001
1010
0001
1100
0001
0010
1001
,
0100
0010
0101
1000
0100
1010
0001
0010
0101
1000
0011
0100
1001
0010
0100
0011
,
0100
1000
0011
0100
1000
0110
0001
0010
1100
0010
0101
1000
0011
0100
1000
0110
,
0001
0100
0011
1000
0001
0110
1000
0100
0011
0100
1010
0100
1001
0010
0001
1100
,
0010
0100
0011
0100
1000
0011
0100
0001
1010
0001
0110
1000
0101
0010
1000
0001
,
1100
0010
1000
0001
0110
0001
1000
0100
0011
0100
0001
0010
0101
1000
0010
0001
,
1100
0010
1000
0010
0001
0010
0100
0010
0101
1000
0010
1000
0011
0100
0010
1001
,
0010
0100
1010
0100
1010
0001
0100
1010
0001
0010
1100
0010
1001
0100
0010
1001
,
0100
0000
0000
0001
0000
0000
0110
0000
0000
1000
0000
0000
0202
0000
0000
0000
0000
0000
0000
0000
0000
0000
0000
0000
0000
0000
0000
0000
0000
0000
0000
0000
0000
0000
0000
0000
1313
0000
0100
0000
0010
0000
0101
0000
0010
0000
0100
0000
,
1010
0100
0010
0001
1000
0100
0010
0001
0010
0001
0010
0100
1000
0100
1000
0010
1000
0010
1000
0100
0010
0001
0010
0100
,
0010
0001
0010
0100
1000
0001
0010
0100
1000
0010
0100
0001
0100
0010
1000
0100
0010
0001
0010
0100
1000
0100
0010
1000
,
0100
0001
0010
0100
0001
1000
0010
1000
0100
1000
0100
0010
0001
0010
0100
0010
0001
1000
0010
0100
1000
0001
0010
0100
,
1000
0100
0010
0001
0010
0100
1010
0100
0010
0101
0010
0100
1010
0100
0010
0101
0010
0100
1010
0100
0010
0001
1000
0100
,
0010
0001
0010
0001
0010
0100
1000
0100
1000
0010
1000
0010
1000
0100
0010
0001
0010
0100
0010
0001
0010
0100
1000
0001
,
0010
0100
1000
0010
0100
0001
0100
0010
1000
0100
0010
0001
0010
0100
1000
0100
0010
1000
0100
0001
0010
0100
0001
1000
,
0010
1000
0100
1000
0100
0010
0001
0010
0100
0010
0001
1000
0010
0100
1000
0001
0010
0100
1001
0100
0010
1001
0010
0100
,
1010
0100
0010
0101
0010
0100
1001
0100
0010
0001
0010
0100
1001
0100
0010
1000
0100
1000
0010
0100
0001
0010
0001
0010
,
0100
1000
0100
1000
0010
1000
0010
0100
0001
0100
0001
0010
0100
1000
0001
1000
0100
0010
0001
0010
0100
0010
0100
0010
,
0001
0010
0100
1000
0010
0100
1000
0001
0100
0010
1000
0100
0010
0001
0010
0100
1000
0100
1000
0010
0100
0010
0001
0010
,
0100
1000
0100
0010
0100
0010
0001
0010
0100
1000
0100
1000
0100
0010
0001
0010
0100
1000
0100
0010
0001
0010
0100
1000
,
0010
0100
0001
0010
0100
1000
0100
0010
0001
0100
0010
1000
0100
0010
0100
0010
0001
0010
0100
0001
1000
0010
0100
1000
,
0100
0001
0100
0010
1000
0010
0100
0001
0010
0100
1000
0100
0010
0001
0010
0001
0100
0001
1000
0100
0010
0001
0010
0100
,
1000
0001
1000
0100
0010
0001
0010
0100
0010
0001
0100
0010
1000
0100
0010
0001
0100
0010
1000
0100
1000
0010
0100
0010
,
0001
0010
0001
0010
0100
1000
0100
0010
0100
0010
0001
0010
0100
0010
0100
1000
0001
0010
0001
0100
0010
0001
0010
0100
,
0001
0000
0010
0000
0001
0000
0010
0000
0100
0000
1000
0000
0002
0000
0000
0000
0000
0000
0000
0000
0020
0000
0233
0000
2300
0000
3002
0000
0023
0000
0230
0000
2300
0000
3002
0000
0113
0000
0000
1000
0000
0000
0100
0000
0000
1000
0000
0000
,
0100
1000
0100
0010
0001
0010
0100
1000
0100
0010
0001
0010
1100
0100
0100
0100
,
0100
0001
0010
0100
1010
0100
1010
0100
0010
0000
0000
0000
1001
0010
0100
1000
,
0001
0010
0101
1000
0001
0010
0100
1000
0100
0010
1000
0100
1001
0010
0100
1001
,
0100
0001
1010
0100
1001
0010
0100
0001
0100
0000
0000
0000
0101
0100
0110
0100
,
0100
1000
0101
0010
0001
0010
0101
1000
0100
1000
0101
1000
0110
0010
1010
0010
,
0010
0001
1010
0100
0010
0100
1001
0100
0010
0000
0101
0000
1001
1000
1100
0001
,
1000
1000
0110
1000
0001
1000
1100
0010
1000
1000
0110
1000
1010
0001
0010
0100
,
0010
0001
0010
1000
0100
0010
0001
0010
0100
0000
0000
0000
2002
3003
0000
0202
,
0303
0000
2200
3300
0220
0330
2020
3030
0220
0330
0022
0033
0202
0303
0000
2020
,
3030
0100
2020
3030
0022
0033
2020
3030
2200
3300
0220
0330
2002
3003
0000
0202
,
0303
0000
2200
3300
0220
0330
2020
3030
0220
0330
0022
0033
2100
0000
0000
3102
,
0000
0000
2203
3300
0202
0303
2200
3300
0220
0000
0000
0000
2332
3003
0000
0202
,
0303
0000
2200
3300
0220
0330
2020
3030
0220
0330
0022
0033
0202
0303
0000
2020
,
3030
0100
2020
3030
0022
0033
2020
3030
2200
3300
0220
0330
2002
3003
0000
0202
,
0303
0000
0000
0000
0000
0000
2200
0000
0000
3300
0000
0000
0220
0000
0000
0330
0000
0000
0202
0000
0000
0303
0000
0000
2020
0000
0000
3030
0000
0000
2002
0000
0000
3003
0000
0000
0011
0000
0100
0000
1000
0000
0100
0000
0010
0000
0100
0000
,
1000
0100
0010
0001
0010
0100
0010
0001
0010
0100
1000
0100
0010
0100
1000
0100
0010
0001
0010
0100
0010
1001
0010
0100
,
1001
0100
0010
0100
1000
0100
0010
0001
0010
0100
0010
0001
0010
0100
1000
0100
0010
0100
1000
0100
0010
1001
0010
0100
,
1010
0000
0000
0000
0000
0000
0000
0000
0001
0000
0000
0000
0000
0000
0000
0000
0010
0000
0000
0000
0000
0000
0000
0000
0101
0000
0000
0000
0000
0000
0000
0000
1000
0000
0000
0000
0000
0000
0000
0000
0100
0000
0000
0000
0000
0000
0000
0000
0010
0000
0000
0000
0000
0000
0000
0000
0100
0000
0000
0000
0000
0000
0000
0000
1000
0000
0000
0000
0000
0000
0000
0000
0100
0000
0000
0000
0000
0000
0000
0000
0010
0000
0000
0000
0000
0000
0000
0000
0001
0000
0000
0000
0000
0000
0000
0000
0010
0000
0000
0000
0000
0000
0000
0000
0100
0000
0000
0000
0000
0000
0000
0000
0010
0000
0000
0000
0000
0000
0000
0000
0001
0000
0000
0000
0000
0000
0000
0000
0010
0000
0000
0000
0000
0000
0000
0000
0100
0000
0000
0000
0000
0000
0000
0000
2010
0000
0000
0000
0000
0000
0000
0000
0000
0000
0000
0000
0000
0000
0000
0000
0000
0000
0000
0000
0000
0000
0000
0000
3202
0000
0000
0000
0000
0000
0000
0000
0000
0000
0000
0000
0000
0000
0000
0000
0000
0000
0000
0000
0000
0303
0000
0000
,
0210
0000
0000
0000
0000
0000
0000
0000
0000
0000
0000
0000
0000
0000
0000
0000
0000
0000
0000
0000
0000
0000
0000
0000
2302
0000
0000
0000
0000
0000
0000
0000
0000
0000
0000
0000
0000
0000
0000
0000
0000
0000
0000
0000
0000
3003
0000
0000
0012
0000
0000
0000
0000
0000
0000
0000
0000
0000
0000
0000
0000
0000
0000
0000
0000
0000
0000
0000
0000
0000
0000
0000
2203
0000
0000
0000
0000
0000
0000
0000
0000
0000
0000
0000
0000
0000
0000
0000
0000
0000
0000
0000
0000
3300
0000
0000
0120
0000
0000
0000
0000
0000
0000
0000
0000
0000
0000
0000
0000
0000
0000
0000
0000
0000
0000
0000
0000
0000
0000
0000
2032
0000
0000
0000
0000
0000
0000
0000
0000
0000
0000
0000
0000
0000
0000
0000
0000
0000
0000
0000
0000
3003
0000
0000
2002
0000
0000
0000
0000
0000
0000
0000
0000
0000
0000
0000
0000
0000
0000
0000
0000
0000
0000
0000
0000
0000
0000
0000
3103
0000
0000
0000
0000
0000
0000
0000
0010
0000
0000
0000
0000
0000
0000
0000
0100
0000
0000
0000
0000
0000
0000
0000
,
0010
0000
0000
0000
0000
0000
0000
0000
0100
0000
0000
0000
0000
0000
0000
0000
0010
0000
0000
0000
0000
0000
0000
0000
0100
0000
0000
0000
0000
0000
0000
0000
0010
0000
0000
0000
0000
0000
0000
0000
0100
0000
0000
0000
0000
0000
0000
0000
0010
0000
0000
0000
0000
0000
0000
0000
0100
0000
0000
0000
0000
0000
0000
0000
0010
0000
0000
0000
0000
0000
0000
0000
0100
0000
0000
0000
0000
0000
0000
0000
0010
0000
0000
0000
0000
0000
0000
0000
0100
0000
0000
0000
0000
0000
0000
0000
0010
0000
0000
0000
0000
0000
0000
0000
0100
0000
0000
0000
0000
0000
0000
0000
0010
0000
0000
0000
0000
0000
0000
0000
0100
0000
0000
0000
0000
0000
0000
0000
0010
0000
0000
0000
0000
0000
0000
0000
0100
0000
0000
0000
0000
0000
0000
0000
2020
0000
0000
0000
0000
0000
0000
0000
0000
0000
0000
0000
0000
0000
0000
0000
0000
0000
0000
0000
0000
0030
0000
0000
3220
0000
0000
0000
0000
0000
0000
0000
0000
0000
0000
0000
0000
0000
0000
0000
0000
0000
0000
0000
0000
0300
0000
0000
,
0232
0000
0000
0000
0000
0000
0000
0003
0322
0000
0000
0000
0000
0000
0000
0030
0223
0000
0000
0000
0000
0000
0000
0000
2332
0000
0000
0000
0000
0000
0000
0003
3202
0000
0000
0000
0000
0000
0000
0003
0322
0000
0000
0000
0000
0000
0000
0030
0223
0000
0000
0000
0000
0000
0000
0000
2332
0000
0000
0000
0000
0000
0000
0003
,
3202
0000
0000
0000
0000
0000
0000
0300
0223
0000
0000
0000
0000
0000
0000
0030
1311
0000
0000
0000
0000
0000
0000
0000
2022
0000
0000
0000
0000
0000
0000
0000
3033
0000
0000
0000
0000
0000
0000
0000
0111
0000
0000
0000
0000
0000
0000
0000
0222
0000
0000
0000
0000
0000
0000
0000
0333
0000
0000
0000
0000
0000
0000
0000
,
1110
2220
3330
1111
2222
0000
0000
3333
;
